1

Topic: x264 2Pass Crash

Moin,
das Encodieren mit x264 stürzt bei mir neuerdings ab. Hab Debug output Level 4 und 9 angehängt.

Gruß
RRe36

2

Re: x264 2Pass Crash

FFmpeg : Error while processing the decoded data for stream #0:5

Scheint als ob FFmpeg da ein Problem mit dem Dekodieren des Video streams hat.

Da der DebugOutput leider nicht die Analyse des Inputs enhält kann ich nicht sagen ob da eventuell ein Fehler beim Mapping der Streams aufgetreten ist oder ob FFmpeg wirklich probleme mit dem Videostream hat.

Cu Selur

3

Re: x264 2Pass Crash

Ist eigentlich eine normale MKV einer Blu-Ray die ich mit MakeMKV kopiert hab. Hab vor kurzem sogar noch eine solche Datei konvertiert hmm

4

Re: x264 2Pass Crash

Wenn Du einen DebugOutput der Analyse der Datei postet kann man am DebugOutput sehen was ffmpeg dazu sagt und ob entweder ffmpeg mit den Dateien nicht klar kommt oder Hybrid da einen Fehler beim Mapping macht. big_smile

Wenn Du ein kleines Sample von so einer Datei mit mir teilen kannst, kann ich da auch genauer draufgucken.
(da MakeMKV schon öfter mal mkvs erstellt hat, welche von niemanden ordentlich gehandelt werden können kann es auch an MakeMKV liegen,..)

Cu Selur

Ps.: als workaround könntest Du vermutlich einfach Avisynth als Decoder erzwingen,...

5

Re: x264 2Pass Crash

Einen Level 4er oder 9er? big_smile

6

Re: x264 2Pass Crash

mach mal nen 9er (4er reicht vermutlich auch, aber so sieht man mehr Infos) smile

Cu Selur

7

Re: x264 2Pass Crash

Hier ist der Debug Output vom Analysieren bis zur Joberstellung.

8

Re: x264 2Pass Crash

Okay, das erklärt es:

Stream #0:0(eng): Video: h264 (High), yuv420p(progressive), 1920x1080 [SAR 1:1 DAR 16:9], 23.98 fps, 23.98 tbr, 1k tbn, 47.95 tbc
Stream #0:1(deu): Audio: dts (DTS-HD MA), 48000 Hz, 7.1, s16p (default)
Stream #0:2(deu): Audio: dts (DTS), 48000 Hz, 5.1(side), fltp, 1536 kb/s
Stream #0:3(eng): Audio: dts (DTS-HD MA), 48000 Hz, 7.1, s32p (24 bit)
Stream #0:5: Video: mjpeg, yuvj444p(pc, bt470bg/unknown/unknown), 640x360 [SAR 72:72 DAR 16:9], 90k tbr, 90k tbn, 90k tbc

-> MakeMKV hat mal wieder geändert wie es die Streams im .mkv Container ablegt. smile

ffmpeg findet 2 video streams.
MediaInfo findet nur einen Videostream und ein Cover.
MPlayer findet nur einen Videostream.
-> Hybrid kommt durcheinander und wählt die ID des falschen Streams.

 Grab Mapping from: Stream #0:0(eng): Video: h264 (High), yuv420p(progressive), 1920x1080 [SAR 1:1 DAR 16:9], 23.98 fps, 23.98 tbr, 1k tbn, 47.95 tbc
 setFFMpegMapping video for: 0(eng)
  -> videoffmpegIDToVideoIndexIdMapping: 0<>0

 Grab Mapping from: Stream #0:1(deu): Audio: dts (DTS-HD MA), 48000 Hz, 7.1, s16p (default)
 setFFMpegMapping audio for: 1(deu)
  -> audioffmpegIDsToAudioIndexMapping: 1<>0

 Grab Mapping from: Stream #0:2(deu): Audio: dts (DTS), 48000 Hz, 5.1(side), fltp, 1536 kb/s
 setFFMpegMapping audio for: 2(deu)
  -> audioffmpegIDsToAudioIndexMapping: 2<>1

 Grab Mapping from: Stream #0:3(eng): Audio: dts (DTS-HD MA), 48000 Hz, 7.1, s32p (24 bit)
 setFFMpegMapping audio for: 3(eng)
  -> audioffmpegIDsToAudioIndexMapping: 3<>2

 Grab Mapping from: Stream #0:4(eng): Audio: dts (DTS), 48000 Hz, 5.1(side), fltp, 1536 kb/s
 setFFMpegMapping audio for: 4(eng)
  -> audioffmpegIDsToAudioIndexMapping: 4<>3

 Grab Mapping from: Stream #0:5: Video: mjpeg, yuvj444p(pc, bt470bg/unknown/unknown), 640x360 [SAR 72:72 DAR 16:9], 90k tbr, 90k tbn, 90k tbc
 setFFMpegMapping video for: 5
  -> videoffmpegIDToVideoIndexIdMapping: 5<>1

Wenn Du mir von so einem File einen kleines Sample irgendwo hochladen kannst (ein paar Sekunden reichen), kann ich das sicher fixen.

Cu Selur

9

Re: x264 2Pass Crash

Wenn ich die Datei geschnibbelt bekomme ohne den Fehler heraus zu muxen lade ich ein Sample hoch. Hab Remuxen nicht probiert weil das bei 3x40Gb zeitlich ... naja kann man sich denken. big_smile

10

Re: x264 2Pass Crash

Mit MkvToolnix müsste man die ersten paar Sekunden rauschneiden können.  smile

Cu Selur

11 (edited by RRe36 2017-05-06 17:28:52)

Re: x264 2Pass Crash

https://1drv.ms/u/s!AswRtxYZXkm6hRy70IfFf_bVkBhz
Verursacht weiterhin zuverlässig den Fehler smile

12

Re: x264 2Pass Crash

Der letzte Stream könnte das angehängte Cover zu sein. Zumindest passt die Auflösung.

13

Re: x264 2Pass Crash

Yup, hab den Stream. -> hab Dir mal ne Version zum Testen per PM geschickt.

Cu Selur