51 (edited by Charun 2013-06-30 13:11:20)

Re: MKV Cutter - tool to cut h.264 mkv files frame accurate,...

Selur wrote:

Die Fehlermeldung ist weniger interessant, als eine Anleitung wie ich das nachstellen kann. smile

cutlist war immer    xxxxx - Dateiende. cutterrev 20130621

Also... beim ersten Durchgang ist alles in Ordnung. Im tmp Ordner bleibt die Datei   test1-001_reencode_mkvOptions.txt übrig.
Dann neue Datei geladen, neuen outputnamen gewählt, selben tmp benutzt. Cutter steigt aus, bleibt aber offen. Nun sind im tmp folgende Dateien: test1-001_reencode_mkvOptions.txt   test1-001_reencode.264   test2-001.mkv   test2-002.264  test2-002.mkv

Ich werde das jetzt mit der rev 20130630 nochmal testen

52

Re: MKV Cutter - tool to cut h.264 mkv files frame accurate,...

Falls das Problem bei der aktuellen Version auch auftritt kann ich später mal draufgucken.

53

Re: MKV Cutter - tool to cut h.264 mkv files frame accurate,...

ok

rev 2130630 selbe Vorgehensweise.

Nach dem ersten Durchgang bleibt im tmpordner nun keine Datei übrig.

Dann: x264 [error]: could not open input file `D:\# Schneiden\tmp\1111-001.avs'

ExitCode: -1, ExitStatus: 1
x264 encoding finished,..
Resetting since x264 crashed,..
Deleting D:\#SCHNE~1\222222.avs,..

bleiben folgende Dateien im tmpordner.  1111-001_reencode.264   2222-001.mkv   2222-002.264   2222-002.mkv

54

Re: MKV Cutter - tool to cut h.264 mkv files frame accurate,...

Machst Du mehrere Durchgänge mit der gleichen Inputdatei?

55

Re: MKV Cutter - tool to cut h.264 mkv files frame accurate,...

Nein,

immer eine andere Datei

56

Re: MKV Cutter - tool to cut h.264 mkv files frame accurate,...

okay, werde draufgucken

57

Re: MKV Cutter - tool to cut h.264 mkv files frame accurate,...

Uploaded a new version which disables subtitles, since mkvmerge doesn't work well when cutting streams with non constant timecodes.
see: https://trac.bunkus.org/ticket/892 && https://trac.bunkus.org/ticket/895

58 (edited by wiseant 2013-09-13 20:56:04)

Re: MKV Cutter - tool to cut h.264 mkv files frame accurate,...

Hi Selur

Thank you, this is a very nice tool - I tried several cuts using files that had different GOP's - worked well - except that the cuts were all one frame short [no big deal]. By the way I used x264 core:135 r2345 f0c1c53 = 8.28 MB versus 11.6 MB re your included version

Does MKV Cutter have a thread on doom9? I searched but couldn't find anything - I found out about it on a post you made at videohelp.

If I have time - I will try to make different GUI for it

Thanks again,
wiseant

59

Re: MKV Cutter - tool to cut h.264 mkv files frame accurate,...

Thank you, this is a very nice tool

happy you like it.

except that the cuts were all one frame short [no big deal].

That should not be the case. hmm

I used x264 core:135 r2345 f0c1c53 = 8.28 MB versus 11.6 MB re your included version

shouldn't be a problem unless the command lines change
(size difference is probably due to different compiler options or included additional libraries)

Does MKV Cutter have a thread on doom9? I searched but couldn't find anything - I found out about it on a post you made at videhelp.

nope. I mentioned it here and in the Hybrid thread over at doom9, but it does not have a dedicated thread.

If I have time - I will try to make different GUI for it

Do if you like, the calls are all there and the whole thing is rather simple and I made it because I was wondering that nobody else had made it before.
MKVCutter development is stuck atm. since I can't find the time and motivation to write subtitle cutting support (since I rarely use subtitles). I would need to port some C# code (code to cut idx/sub and pgs subtitles) to Qt/C++ and write some code for ttxt cutting (already got code for srt and ass cutting). Other than that the next hurdle would be to think about vfr handling.

Cu Selur

60

Re: MKV Cutter - tool to cut h.264 mkv files frame accurate,...

Hi,Selur
I have a problem with your mkv cutter which i love much. The problem is that when it encode x264 to more frames (eg. 200 +frames),the video and audio come to no-synchronized at the begining of  the out video, its like first  slow motion ,then quick motion, after the short  no-synchronized time ,the  else is perfect.
   Does the ffmsindex.exe  is needed which I havent found in your Mkv cutter package?Thanks.

61

Re: MKV Cutter - tool to cut h.264 mkv files frame accurate,...

the video and audio come to no-synchronized at the begining of  the out video, its like first  slow motion ,then quick motion, after the short  no-synchronized time ,the  else is perfect.

-> post a detailed MediaInfo analysis of the input:

MediaInfo -full "Path to input file"

My first guess is that you source has a variable frame rate, if that is not the case I would need a sample file and a cutlist to reproduce the problem.

Does the ffmsindex.exe  is needed which I havent found in your Mkv cutter package?

probably not smile

62

Re: MKV Cutter - tool to cut h.264 mkv files frame accurate,...

File size                                : 456 MiB
File size                                : 456.4 MiB
Duration                                 : 2520985
Duration                                 : 42mn 0s
Duration                                 : 42mn 0s 985ms
Duration                                 : 42mn 0s
Duration                                 : 00:42:00.985
Overall bit rate                         : 1518570
Overall bit rate                         : 1 519 Kbps
Encoded date                             : UTC 2010-11-03 00:57:55
File creation date                       : UTC 2013-08-29 08:30:11.441
File creation date (local)               : 2013-08-29 16:30:11.441
File last modification date              : UTC 2011-09-26 14:25:59.515
File last modification date (local)      : 2011-09-26 22:25:59.515
Writing application                      : mkvmerge v4.0.0 ('The Stars were mine
') 编译于 Jun  6 2010 16:18:42
Writing library                          : libebml v1.0.0 + libmatroska v1.0.0
Writing library                          : libebml v1.0.0 + libmatroska v1.0.0

63

Re: MKV Cutter - tool to cut h.264 mkv files frame accurate,...

If these are the only outputs that MediaInfo provides, something is definitely wrong,  normally such an output should look like:

General
Count                                    : 285
Count of stream of this kind             : 1
Kind of stream                           : General
Kind of stream                           : General
Stream identifier                        : 0
Unique ID                                : 210232164149956024721776805123617847830
Unique ID                                : 210232164149956024721776805123617847830 (0x9E293DF516254A0AAE5DEFC58095FA16)
Count of video streams                   : 1
Count of audio streams                   : 4
Video_Format_List                        : AVC
Video_Format_WithHint_List               : AVC
Codecs Video                             : AVC
Video_Language_List                      : English
Audio_Format_List                        : AC-3 / AC-3 / AC-3 / AC-3
Audio_Format_WithHint_List               : AC-3 / AC-3 / AC-3 / AC-3
Audio codecs                             : AC3 / AC3 / AC3 / AC3
Audio_Language_List                      : English / German / French / Nepali
Complete name                            : h:\TestClips&Co\Multi_language_withTags.mkv
Folder name                              : h:\TestClips&Co
File name                                : Multi_language_withTags
File extension                           : mkv
Format                                   : Matroska
Format                                   : Matroska
Format/Url                               : http://packs.matroska.org/
Format/Extensions usually used           : mkv mk3d mka mks
Commercial name                          : Matroska
Format version                           : Version 2
Codec                                    : Matroska
Codec                                    : Matroska
Codec/Url                                : http://packs.matroska.org/
Codec/Extensions usually used            : mkv mk3d mka mks
File size                                : 21566831
File size                                : 20.6 MiB
File size                                : 21 MiB
File size                                : 21 MiB
File size                                : 20.6 MiB
File size                                : 20.57 MiB
Duration                                 : 37920
Duration                                 : 37s 920ms
Duration                                 : 37s 920ms
Duration                                 : 37s 920ms
Duration                                 : 00:00:37.920
Overall bit rate                         : 4549964
Overall bit rate                         : 4 550 Kbps
Stream size                              : 429182
Stream size                              : 419 KiB (2%)
Stream size                              : 419 KiB
Stream size                              : 419 KiB
Stream size                              : 419 KiB
Stream size                              : 419.1 KiB
Stream size                              : 419 KiB (2%)
Proportion of this stream                : 0.01990
Encoded date                             : UTC 2012-11-08 06:06:19
File creation date                       : UTC 2012-11-08 06:06:19.897
File creation date (local)               : 2012-11-08 08:06:19.897
File last modification date              : UTC 2012-11-08 06:06:20.380
File last modification date (local)      : 2012-11-08 08:06:20.380
Writing application                      : mkvmerge v5.8.0 ('No Sleep / Pillow') built on Sep  2 2012 15:37:04
Writing library                          : libebml v1.2.3 + libmatroska v1.3.0
Writing library                          : libebml v1.2.3 + libmatroska v1.3.0
Encoding Gui                             : Hybrid 2012.11.6.1

Video
Count                                    : 264
Count of stream of this kind             : 1
Kind of stream                           : Video
Kind of stream                           : Video
Stream identifier                        : 0
StreamOrder                              : 0
ID                                       : 1
ID                                       : 1
Unique ID                                : 12686636744310501003
Format                                   : AVC
Format/Info                              : Advanced Video Codec
Format/Url                               : http://developers.videolan.org/x264.html
Commercial name                          : AVC
Format profile                           : Baseline@L4.1
Format settings                          : 1 Ref Frames
Format settings, CABAC                   : No
Format settings, CABAC                   : No
Format settings, ReFrames                : 1
Format settings, ReFrames                : 1 frame
Internet media type                      : video/H264
Muxing mode                              : Header stripping
Codec ID                                 : V_MPEG4/ISO/AVC
Codec ID/Url                             : http://ffdshow-tryout.sourceforge.net/
Codec                                    : V_MPEG4/ISO/AVC
Codec                                    : AVC
Codec/Family                             : AVC
Codec/Info                               : Advanced Video Codec
Codec/Url                                : http://ffdshow-tryout.sourceforge.net/
Codec profile                            : Baseline@L4.1
Codec settings                           : 1 Ref Frames
Codec settings, CABAC                    : No
Codec_Settings_RefFrames                 : 1
Duration                                 : 37920
Duration                                 : 37s 920ms
Duration                                 : 37s 920ms
Duration                                 : 37s 920ms
Duration                                 : 00:00:37.920
Bit rate                                 : 2891420
Bit rate                                 : 2 891 Kbps
Width                                    : 720
Width                                    : 720 pixels
Height                                   : 576
Height                                   : 576 pixels
Pixel aspect ratio                       : 1.422
Display aspect ratio                     : 1.778
Display aspect ratio                     : 16:9
Frame rate mode                          : CFR
Frame rate mode                          : Constant
Frame rate                               : 25.000
Frame rate                               : 25.000 fps
Frame count                              : 948
Standard                                 : PAL
Resolution                               : 8
Resolution                               : 8 bits
Colorimetry                              : 4:2:0
Color space                              : YUV
Chroma subsampling                       : 4:2:0
Bit depth                                : 8
Bit depth                                : 8 bits
Scan type                                : Progressive
Scan type                                : Progressive
Interlacement                            : PPF
Interlacement                            : Progressive
Bits/(Pixel*Frame)                       : 0.279
Delay                                    : 0
Delay                                    : 00:00:00.000
Delay, origin                            : Container
Delay, origin                            : Container
Stream size                              : 13705329
Stream size                              : 13.1 MiB (64%)
Stream size                              : 13 MiB
Stream size                              : 13 MiB
Stream size                              : 13.1 MiB
Stream size                              : 13.07 MiB
Stream size                              : 13.1 MiB (64%)
Proportion of this stream                : 0.63548
Writing library                          : x264 - core 125 r2208 d9d2288
Writing library                          : x264 core 125 r2208 d9d2288
Writing library/Name                     : x264
Writing library/Version                  : core 125 r2208 d9d2288
Encoding settings                        : cabac=0 / ref=1 / deblock=0:0:0 / analyse=0:0 / me=dia / subme=0 / psy=1 / psy_rd=1.00:0.00 / mixed_ref=0 / me_range=16 / chroma_me=1 / trellis=0 / 8x8dct=0 / cqm=0 / deadzone=21,11 / fast_pskip=1 / chroma_qp_offset=0 / threads=12 / lookahead_threads=2 / sliced_threads=0 / nr=0 / decimate=1 / interlaced=0 / bluray_compat=0 / constrained_intra=0 / bframes=0 / weightp=0 / keyint=250 / keyint_min=25 / scenecut=0 / intra_refresh=0 / rc_lookahead=0 / rc=crf / mbtree=0 / crf=22.0 / qcomp=0.60 / qpmin=0 / qpmax=69 / qpstep=4 / vbv_maxrate=62500 / vbv_bufsize=78125 / crf_max=0.0 / nal_hrd=none / ip_ratio=1.40 / aq=0
Default                                  : Yes
Default                                  : Yes
Forced                                   : Yes
Forced                                   : Yes
Matrix coefficients                      : BT.709

Audio #1
Count                                    : 252
Count of stream of this kind             : 4
Kind of stream                           : Audio
Kind of stream                           : Audio
Stream identifier                        : 0
Stream identifier                        : 1
StreamOrder                              : 1
ID                                       : 2
ID                                       : 2
Unique ID                                : 14353343917147936150
Format                                   : AC-3
Format/Info                              : Audio Coding 3
Commercial name                          : AC-3
Mode extension                           : CM (complete main)
Format settings, Endianness              : Big
Muxing mode                              : Header stripping
Codec ID                                 : A_AC3
Codec                                    : AC3
Codec                                    : AC3
Codec/Family                             : AC3
Codec/Info                               : Dolby AC3
Duration                                 : 37920
Duration                                 : 37s 920ms
Duration                                 : 37s 920ms
Duration                                 : 37s 920ms
Duration                                 : 00:00:37.920
Bit rate mode                            : CBR
Bit rate mode                            : Constant
Bit rate                                 : 448000
Bit rate                                 : 448 Kbps
Channel count                            : 6
Channel count                            : 6 channels
Channel positions                        : Front: L C R, Side: L R, LFE
Channel positions                        : 3/2/0.1
Sampling rate                            : 48000
Sampling rate                            : 48.0 KHz
Samples count                            : 1820160
Resolution                               : 16
Resolution                               : 16 bits
Bit depth                                : 16
Bit depth                                : 16 bits
Compression mode                         : Lossy
Compression mode                         : Lossy
Delay                                    : 0
Delay                                    : 00:00:00.000
Delay, origin                            : Container
Delay, origin                            : Container
Delay relative to video                  : 0
Video0 delay                             : 0
Stream size                              : 2123520
Stream size                              : 2.03 MiB (10%)
Stream size                              : 2 MiB
Stream size                              : 2.0 MiB
Stream size                              : 2.03 MiB
Stream size                              : 2.025 MiB
Stream size                              : 2.03 MiB (10%)
Proportion of this stream                : 0.09846
Title                                    : englisch
Language                                 : en
Language                                 : English
Language                                 : English
Language                                 : en
Language                                 : eng
Language                                 : en
Default                                  : Yes
Default                                  : Yes
Forced                                   : No
Forced                                   : No
bsid                                     : 8
dialnorm                                 : -27
dialnorm/String                          : -27 dB
compr                                    : -2.87
compr/String                             : -2.87 dB
dynrng                                   : -0.56
dynrng/String                            : -0.56 dB
acmod                                    : 7
lfeon                                    : 1
dialnorm_Average                         : -27
dialnorm_Average/String                  : -27 dB
dialnorm_Minimum                         : -27
dialnorm_Minimum/String                  : -27 dB
dialnorm_Maximum                         : -27
dialnorm_Maximum/String                  : -27 dB
dialnorm_Count                           : 2
compr_Average                            : -2.68
compr_Average/String                     : -2.68 dB
compr_Minimum                            : -2.87
compr_Minimum/String                     : -2.87 dB
compr_Maximum                            : -2.50
compr_Maximum/String                     : -2.50 dB
compr_Count                              : 2
dynrng_Average                           : -0.56
dynrng_Average/String                    : -0.56 dB
dynrng_Minimum                           : -0.56
dynrng_Minimum/String                    : -0.56 dB
dynrng_Maximum                           : -0.56
dynrng_Maximum/String                    : -0.56 dB
dynrng_Count                             : 2

Audio #2
Count                                    : 252
Count of stream of this kind             : 4
Kind of stream                           : Audio
Kind of stream                           : Audio
Stream identifier                        : 1
Stream identifier                        : 2
StreamOrder                              : 2
ID                                       : 3
ID                                       : 3
Unique ID                                : 1014431424818629024
Format                                   : AC-3
Format/Info                              : Audio Coding 3
Commercial name                          : AC-3
Mode extension                           : CM (complete main)
Format settings, Endianness              : Big
Muxing mode                              : Header stripping
Codec ID                                 : A_AC3
Codec                                    : AC3
Codec                                    : AC3
Codec/Family                             : AC3
Codec/Info                               : Dolby AC3
Duration                                 : 37920
Duration                                 : 37s 920ms
Duration                                 : 37s 920ms
Duration                                 : 37s 920ms
Duration                                 : 00:00:37.920
Bit rate mode                            : CBR
Bit rate mode                            : Constant
Bit rate                                 : 448000
Bit rate                                 : 448 Kbps
Channel count                            : 6
Channel count                            : 6 channels
Channel positions                        : Front: L C R, Side: L R, LFE
Channel positions                        : 3/2/0.1
Sampling rate                            : 48000
Sampling rate                            : 48.0 KHz
Samples count                            : 1820160
Resolution                               : 16
Resolution                               : 16 bits
Bit depth                                : 16
Bit depth                                : 16 bits
Compression mode                         : Lossy
Compression mode                         : Lossy
Delay                                    : 0
Delay                                    : 00:00:00.000
Delay, origin                            : Container
Delay, origin                            : Container
Delay relative to video                  : 0
Video0 delay                             : 0
Stream size                              : 2123520
Stream size                              : 2.03 MiB (10%)
Stream size                              : 2 MiB
Stream size                              : 2.0 MiB
Stream size                              : 2.03 MiB
Stream size                              : 2.025 MiB
Stream size                              : 2.03 MiB (10%)
Proportion of this stream                : 0.09846
Title                                    : deutsch
Language                                 : de
Language                                 : German
Language                                 : German
Language                                 : de
Language                                 : deu
Language                                 : de
Default                                  : No
Default                                  : No
Forced                                   : No
Forced                                   : No
bsid                                     : 8
dialnorm                                 : -27
dialnorm/String                          : -27 dB
compr                                    : -0.86
compr/String                             : -0.86 dB
dynrng                                   : -0.14
dynrng/String                            : -0.14 dB
acmod                                    : 7
lfeon                                    : 1
dialnorm_Average                         : -27
dialnorm_Average/String                  : -27 dB
dialnorm_Minimum                         : -27
dialnorm_Minimum/String                  : -27 dB
dialnorm_Maximum                         : -27
dialnorm_Maximum/String                  : -27 dB
dialnorm_Count                           : 2
compr_Average                            : -0.86
compr_Average/String                     : -0.86 dB
compr_Minimum                            : -0.86
compr_Minimum/String                     : -0.86 dB
compr_Maximum                            : -0.86
compr_Maximum/String                     : -0.86 dB
compr_Count                              : 2
dynrng_Average                           : -0.14
dynrng_Average/String                    : -0.14 dB
dynrng_Minimum                           : -0.14
dynrng_Minimum/String                    : -0.14 dB
dynrng_Maximum                           : -0.14
dynrng_Maximum/String                    : -0.14 dB
dynrng_Count                             : 2

Audio #3
Count                                    : 252
Count of stream of this kind             : 4
Kind of stream                           : Audio
Kind of stream                           : Audio
Stream identifier                        : 2
Stream identifier                        : 3
StreamOrder                              : 3
ID                                       : 4
ID                                       : 4
Unique ID                                : 6107715674875368637
Format                                   : AC-3
Format/Info                              : Audio Coding 3
Commercial name                          : AC-3
Mode extension                           : CM (complete main)
Format settings, Endianness              : Big
Muxing mode                              : Header stripping
Codec ID                                 : A_AC3
Codec                                    : AC3
Codec                                    : AC3
Codec/Family                             : AC3
Codec/Info                               : Dolby AC3
Duration                                 : 37920
Duration                                 : 37s 920ms
Duration                                 : 37s 920ms
Duration                                 : 37s 920ms
Duration                                 : 00:00:37.920
Bit rate mode                            : CBR
Bit rate mode                            : Constant
Bit rate                                 : 448000
Bit rate                                 : 448 Kbps
Channel count                            : 6
Channel count                            : 6 channels
Channel positions                        : Front: L C R, Side: L R, LFE
Channel positions                        : 3/2/0.1
Sampling rate                            : 48000
Sampling rate                            : 48.0 KHz
Samples count                            : 1820160
Resolution                               : 16
Resolution                               : 16 bits
Bit depth                                : 16
Bit depth                                : 16 bits
Compression mode                         : Lossy
Compression mode                         : Lossy
Delay                                    : 0
Delay                                    : 00:00:00.000
Delay, origin                            : Container
Delay, origin                            : Container
Delay relative to video                  : 0
Video0 delay                             : 0
Stream size                              : 2123520
Stream size                              : 2.03 MiB (10%)
Stream size                              : 2 MiB
Stream size                              : 2.0 MiB
Stream size                              : 2.03 MiB
Stream size                              : 2.025 MiB
Stream size                              : 2.03 MiB (10%)
Proportion of this stream                : 0.09846
Title                                    : Französisch
Language                                 : fr
Language                                 : French
Language                                 : French
Language                                 : fr
Language                                 : fra
Language                                 : fr
Default                                  : No
Default                                  : No
Forced                                   : No
Forced                                   : No
bsid                                     : 8
dialnorm                                 : -27
dialnorm/String                          : -27 dB
compr                                    : -5.00
compr/String                             : -5.00 dB
dynrng                                   : -1.32
dynrng/String                            : -1.32 dB
acmod                                    : 7
lfeon                                    : 1
dialnorm_Average                         : -27
dialnorm_Average/String                  : -27 dB
dialnorm_Minimum                         : -27
dialnorm_Minimum/String                  : -27 dB
dialnorm_Maximum                         : -27
dialnorm_Maximum/String                  : -27 dB
dialnorm_Count                           : 2
compr_Average                            : -4.76
compr_Average/String                     : -4.76 dB
compr_Minimum                            : -5.00
compr_Minimum/String                     : -5.00 dB
compr_Maximum                            : -4.53
compr_Maximum/String                     : -4.53 dB
compr_Count                              : 2
dynrng_Average                           : -1.32
dynrng_Average/String                    : -1.32 dB
dynrng_Minimum                           : -1.32
dynrng_Minimum/String                    : -1.32 dB
dynrng_Maximum                           : -1.32
dynrng_Maximum/String                    : -1.32 dB
dynrng_Count                             : 2

Audio #4
Count                                    : 254
Count of stream of this kind             : 4
Kind of stream                           : Audio
Kind of stream                           : Audio
Stream identifier                        : 3
Stream identifier                        : 4
StreamOrder                              : 4
ID                                       : 5
ID                                       : 5
Unique ID                                : 13922031675158833328
Format                                   : AC-3
Format/Info                              : Audio Coding 3
Commercial name                          : AC-3
Format profile                           : Dolby Digital
Mode extension                           : CM (complete main)
Format settings, Endianness              : Big
Muxing mode                              : Header stripping
Codec ID                                 : A_AC3
Codec                                    : AC3
Codec                                    : AC3
Codec/Family                             : AC3
Codec/Info                               : Dolby AC3
Codec profile                            : Dolby Digital
Duration                                 : 37920
Duration                                 : 37s 920ms
Duration                                 : 37s 920ms
Duration                                 : 37s 920ms
Duration                                 : 00:00:37.920
Bit rate mode                            : CBR
Bit rate mode                            : Constant
Bit rate                                 : 224000
Bit rate                                 : 224 Kbps
Channel count                            : 2
Channel count                            : 2 channels
Channel positions                        : Front: L R
Channel positions                        : 2/0/0
Sampling rate                            : 48000
Sampling rate                            : 48.0 KHz
Samples count                            : 1820160
Resolution                               : 16
Resolution                               : 16 bits
Bit depth                                : 16
Bit depth                                : 16 bits
Compression mode                         : Lossy
Compression mode                         : Lossy
Delay                                    : 0
Delay                                    : 00:00:00.000
Delay, origin                            : Container
Delay, origin                            : Container
Delay relative to video                  : 0
Video0 delay                             : 0
Stream size                              : 1061760
Stream size                              : 1.01 MiB (5%)
Stream size                              : 1 MiB
Stream size                              : 1.0 MiB
Stream size                              : 1.01 MiB
Stream size                              : 1.013 MiB
Stream size                              : 1.01 MiB (5%)
Proportion of this stream                : 0.04923
Title                                    : Nepal
Language                                 : ne
Language                                 : Nepali
Language                                 : Nepali
Language                                 : ne
Language                                 : nep
Language                                 : ne
Default                                  : No
Default                                  : No
Forced                                   : No
Forced                                   : No
bsid                                     : 8
dialnorm                                 : -27
dialnorm/String                          : -27 dB
compr                                    : 1.49
compr/String                             : 1.49 dB
dynrng                                   : 1.49
dynrng/String                            : 1.49 dB
dsurmod                                  : 2
dsurmod/String                           : Dolby Surround encoded
acmod                                    : 2
lfeon                                    : 0
dialnorm_Average                         : -27
dialnorm_Average/String                  : -27 dB
dialnorm_Minimum                         : -27
dialnorm_Minimum/String                  : -27 dB
dialnorm_Maximum                         : -27
dialnorm_Maximum/String                  : -27 dB
dialnorm_Count                           : 2
compr_Average                            : 1.49
compr_Average/String                     : 1.49 dB
compr_Minimum                            : 1.49
compr_Minimum/String                     : 1.49 dB
compr_Maximum                            : 1.49
compr_Maximum/String                     : 1.49 dB
compr_Count                              : 2
dynrng_Average                           : 1.61
dynrng_Average/String                    : 1.61 dB
dynrng_Minimum                           : 1.49
dynrng_Minimum/String                    : 1.49 dB
dynrng_Maximum                           : 1.72
dynrng_Maximum/String                    : 1.72 dB
dynrng_Count                             : 2

-> if these really are the only outputs, try to remux your file with a newer mkvmerge version before trying to cut it with MKV Cutter.

Cu Selur

64

Re: MKV Cutter - tool to cut h.264 mkv files frame accurate,...

why I get the warning message when post a reply

Too more links in message. Allowed 1 links. Reduce number of links and post it again

so , I add a file

65

Re: MKV Cutter - tool to cut h.264 mkv files frame accurate,...

why I get the warning message when post a reply

normal users are only allowed to attach one file per post

66

Re: MKV Cutter - tool to cut h.264 mkv files frame accurate,...

Got your pm with  the infos now, vfr is not the problem since the mediainfo output of your source indicates cfr.
Source values all look fine not sure what is causing the problem for you.
-> will need a sample (which triggers this problem) and the cut queue you use (MKV Cutter allows to export the cut queues)

Cu Selur

67

Re: MKV Cutter - tool to cut h.264 mkv files frame accurate,...

this is my video:
https://skydrive.live.com/?cid=5c170740 … 939E!1343#
when cutting a clip (from frame 2850 to 16363), it get  out a  imperfect video
Thank you.

68

Re: MKV Cutter - tool to cut h.264 mkv files frame accurate,...

Downloading the clip, busy atm. but will look at it in a few hours.

69

Re: MKV Cutter - tool to cut h.264 mkv files frame accurate,...

I see the problem is a freeze between the two files which get merged, there seems to be a problem with the guessed settings (normally  files encoded whith x264 include the encoding settings, your doesn't hmm)

70

Re: MKV Cutter - tool to cut h.264 mkv files frame accurate,...

I rewrote the 'settings guessing' code a bit and the output seems to be 'better', but still not perfect.
-> uploaded a new version

71

Re: MKV Cutter - tool to cut h.264 mkv files frame accurate,...

Selur wrote:

I rewrote the 'settings guessing' code a bit and the output seems to be 'better', but still not perfect.
-> uploaded a new version

Thank you for your reply.

72

Re: MKV Cutter - tool to cut h.264 mkv files frame accurate,...

made an update; no code change simply the L-Smash dll was updated, which seems to help with some otherwise problematic files.

73

Re: MKV Cutter - tool to cut h.264 mkv files frame accurate,...

Brilliant tool! And so easy to use!

74

Re: MKV Cutter - tool to cut h.264 mkv files frame accurate,...

Hello everyone. I'm sorry for my bad english (it's by a translator) smile

I would like to use MkvCutter but it does not work anyway. I get always the same error with any mkv:

Track 1: video, codec ID: V_MPEG4/ISO/AVC (h.264 profile: High @L4.1), mkvmerge/mkvextract track ID: 0, 
language: und, pixel width: 1280, pixel height: 720, display width: 1280, display height: 720, default 
duration: 40.000ms (25.000 frames/fields per second for a video track)
Track 2: audio, codec ID: A_MPEG/L2, mkvmerge/mkvextract track ID: 1, default duration: 24.000ms (41.667 
frames/fields per second for a video track), language: und, sampling freq: 48000, channels: 2
 frame count: 43307
MkvvInfo detected 43307 frames 306 of them are key frames
 video stream key frame count: 306, average distance: 141
MediaInfo call: "C:\MKV Cutter\MediaInfo.exe" --Full "C:\MyVideo.mkv"
 video scan order: progressive
 video scan order: progressive
 profile@Level: High@L4.1
 cabac: 1
 cabac: 1
 reference frames: 5
 aspect ratio of input: 1
 frame rate mode: cfr
 audio format: mp2
 video scan order: progressive
initializing the avisynth script environment,..
Loading avisynth.dll
Could not load avisynth.dll! Cannot load library avisynth.dll: No such file or directory
Resetting since avs viewer crashed,..

I've tried AviSynth standard installation too without success.
S.O.: XP pro SP3.

How can i solve?

Any help will be appreciated wink

75

Re: MKV Cutter - tool to cut h.264 mkv files frame accurate,...

Just tried inside a Windows XP Pro VM and couldn't reproduce the issue.
Downloaded: MkvCutter_rev20140307.7z, extracted it, started MmvCutter and opened an mkv file. -> No problem loading the file.
-> Might be some virus scanner or firewall interfering.

Cu Selur

Ps.: Installing Avisynth should not help or interfere with MkvCutter, which comes with all the files it uses and need.